Results 1 to 2 of 2

Thread: DJ Sonix - King Of The Stars <-- trancy/liquid drum & bass

  1. #1

    Arrow DJ Sonix - King Of The Stars <-- trancy/liquid drum & bass



    New set! This time a delicious dish of Liquid Drum & Bass. This is a follow-up to "King Of The Jungle" DJ set. Heavier on the uplifting and epic trancy side than its counterpart. A sort of a Yin to its Yang, if you will. Very lush and... well, enough of me talking; I'll let the music speak for itself. Enjoy!

    DJ Sonix - King Of The Stars
    Duration = 62:28 mins.

    01. Current Value feat. Snow - Edge Of Dreams
    02. DJ Trax - Lay Back
    03. Unknown Error - The Yearning (Apex VIP)
    04. B-Complex - Beautiful Lies
    05. Muffler - Hear Me Scream
    06. Shock One feat. Metrik & Phetsta - True Believer
    07. Mistabishi - No Matter What
    08. Concept & Shnek - Burning Up Inside
    09. Crystal Clear & Netsky - King Of The Stars
    10. Blue Sonix - Luv Me (Logistics Remix)
    11. Logistics - Intervention
    12. MRSA - Drift Away
    13. London Elektricity - Just One Second (Apex Remix)
    14. Mistabishi - View From Nowhere



    Cue file for CD burning:
    Code:
    TITLE "King Of The Stars"
    PERFORMER "DJ Sonix - djSonix.com"
    FILE "DJ_Sonix_-_King_Of_The_Stars-www_djsonix_com.mp3" MP3
      TRACK 01 AUDIO
        TITLE "Edge Of Dreams"
        PERFORMER "Current Value feat. Snow"
        INDEX 01 00:00:00
      TRACK 02 AUDIO
        TITLE "Lay Back"
        PERFORMER "DJ Trax"
        INDEX 01 06:11:00
      TRACK 03 AUDIO
        TITLE "The Yearning (Apex VIP)"
        PERFORMER "Unknown Error"
        INDEX 01 08:06:00
      TRACK 04 AUDIO
        TITLE "Beautiful Lies"
        PERFORMER "B-Complex"
        INDEX 01 14:38:00
      TRACK 05 AUDIO
        TITLE "Hear Me Scream"
        PERFORMER "Muffler"
        INDEX 01 20:06:00
      TRACK 06 AUDIO
        TITLE "True Believer"
        PERFORMER "Shock One feat. Metrik & Phetsta"
        INDEX 01 24:49:00
      TRACK 07 AUDIO
        TITLE "No Matter What"
        PERFORMER "Mistabishi"
        INDEX 01 28:38:00
      TRACK 08 AUDIO
        TITLE "Burning Up Inside"
        PERFORMER "Concept & Shnek"
        INDEX 01 31:03:00
      TRACK 09 AUDIO
        TITLE "King Of The Stars"
        PERFORMER "Crystal Clear & Netsky"
        INDEX 01 35:03:00
      TRACK 10 AUDIO
        TITLE "Luv Me (Logistics Remix)"
        PERFORMER "Blue Sonix"
        INDEX 01 40:52:00
      TRACK 11 AUDIO
        TITLE "Intervention"
        PERFORMER "Logistics"
        INDEX 01 43:57:00
      TRACK 12 AUDIO
        TITLE "Drift Away"
        PERFORMER "MRSA"
        INDEX 01 47:57:00
      TRACK 13 AUDIO
        TITLE "Just One Second (Apex Remix)"
        PERFORMER "London Elektricity"
        INDEX 01 52:19:00
      TRACK 14 AUDIO
        TITLE "View From Nowhere"
        PERFORMER "Mistabishi"
        INDEX 01 57:46:00
    DOWNLOAD LiNK:
    http://www.djsonix.com/mixes/DJ_Soni...jsonix_com.mp3

    File Size: 85 MB


    ...more at DJ Sonix | DJ/Producer/Remixer :: Music Downloads

    http://www.djsonix.com

  2. #2

Thread Information

Users Browsing this Thread

There are currently 1 users browsing this thread. (0 members and 1 guests)

Similar Threads

  1. Replies: 0
    Last Post: Oct 29th, 2009, 14:37
  2. Drum and Bass, Jump Up Mix set "Simple as That, Take 2"
    By meam in forum AH.FM Forum Member Mixes
    Replies: 0
    Last Post: Mar 8th, 2009, 15:31
  3. Drum n Bass
    By xruntime in forum Music Discussion
    Replies: 25
    Last Post: Apr 22nd, 2008, 21:08
  4. Drum and Bass
    By Mosaic in forum Music Discussion
    Replies: 0
    Last Post: Jul 12th, 2007, 05:01

Bookmarks

Bookmarks

Posting Permissions

  • You may not post new threads
  • You may not post replies
  • You may not post attachments
  • You may not edit your posts
  •