Every Friday the 13th I am making a mix composed of darker tunes and dirtier basslines. This is my 2nd Friday the 13th mix, enjoy!

latham - Friday the 13th v2 - SoundCloud

File Info: 320kbs // 177mb // 1hr 17min
Completion Date 8-12-10

Tracklist:
1. Moonbeam - Distance
2. Mason - You Are Not Alone (Original Mix)
3. Ashley Wallbridge - Smoke (Original Mix)
4. Sander van Doorn - Reach Out
5. Marco V Feat Khashassi - Scenario (123XYZ Remix)
6. Basil O'Glue - Grey Scales
7. Purple Haze - Hymn 2.0
8. D.E.R. & Julius Beat vs. Lee Osbourne - State of Feeling (lathaMashup)
9. Marcus Schossow - Genre This
10. Eddie Sender - High Pressure
11. M.I.K.E. - Unity (Mr Pit Remix)
12. DJ Eco - People (Matthew Nagle Remix)
13. Wezz Devall - Free My Willy (Original Mix)
14. Oryon - Gotham
15. Daniel Wanrooy & Rene Havelaar - 5th Avenue (Low Pass Mix)

_________________________________________________ _

Here is the .cue code if anyone wants:

TITLE "Friday the 13th v2" PERFORMER "latham"
FILE "Friday the 13th v2.mp3" MP3
TRACK 01 AUDIO
TITLE "Distance"
PERFORMER "Moonbeam"
INDEX 01 00:00:00
TRACK 02 AUDIO
TITLE "You Are Not Alone"
PERFORMER "Mason"
INDEX 01 05:51:00
TRACK 03 AUDIO
TITLE "Smoke"
PERFORMER "Ashley Wallbridge"
INDEX 01 09:16:00
TRACK 04 AUDIO
TITLE "Reach Out"
PERFORMER "Sander van Doorn"
INDEX 01 14:21:00
TRACK 05 AUDIO
TITLE "Scenario (123XYZ Remix)"
PERFORMER "Marco V feat Khasassi"
INDEX 01 18:38:00
TRACK 06 AUDIO
TITLE "Grey Scales"
PERFORMER "Basil O'Glue"
INDEX 01 24:28:00
TRACK 07 AUDIO
TITLE "Hymn 2.0"
PERFORMER "Sander van Door Pres Purple Haze"
INDEX 01 29:26:00
TRACK 08 AUDIO
TITLE "State of Feeling (lathaMashup)"
PERFORMER "D.E.R. & Julius Beats vs. Lee Osbourne"
INDEX 01 34:53:00
TRACK 09 AUDIO
TITLE "Genre This"
PERFORMER "Marcus Schossow"
INDEX 01 39:55:00
TRACK 10 AUDIO
TITLE "High Pressure"
PERFORMER "Eddie Sender"
INDEX 01 45:50:00
TRACK 11 AUDIO
TITLE "Unity (Mr Pit Remix)"
PERFORMER "M.I.K.E."
INDEX 01 50:49:00
TRACK 12 AUDIO
TITLE "People (Matthew Nagle Remix)"
PERFORMER "DJ Eco"
INDEX 01 55:40:00
TRACK 13 AUDIO
TITLE "Free My Willy"
PERFORMER "Wezz Devall"
INDEX 01 61:53:00
TRACK 14 AUDIO
TITLE "Gotham"
PERFORMER "Oryon"
INDEX 01 66:58:00
TRACK 15 AUDIO
TITLE "5th Avenue (Low Pass Mix)"
PERFORMER "Daniel Wanrooy & Rene Havelaar"
INDEX 01 71:45:00