hi all !
dj - o-b-r
been djing on and off for 13 years now
house to techno is what i play
download new techno tech house mix -http://www.sendspace.com/file/v90xwv
play - http://www.transmissionfm.com/mixes/detail/409/

PERFORMER o-b-r
TITLE "28/03/2007 "
FILE "lost in ------.mp3" MP3
TRACK 01 AUDIO
TITLE "Some Polyphony - Original Mix"
PERFORMER "Petter"
INDEX 01 00:00:00
TRACK 02 AUDIO
TITLE "We Won't Stop - Tube & Berger Remix"
PERFORMER "DJ Delicious, DJ Errik"
INDEX 01 06:26:00
TRACK 03 AUDIO
TITLE "Erotic Discourse - Audiojack Remix"
PERFORMER "Bobby Peru"
INDEX 01 13:02:00
TRACK 04 AUDIO
TITLE "Dubby Cop - Original Mix"
PERFORMER "Phonogenic"
INDEX 01 18:39:00
TRACK 05 AUDIO
TITLE "Sweat (On The Walls) - Original Mix"
PERFORMER "John Tejada"
INDEX 01 23:59:00
TRACK 06 AUDIO
TITLE "Shake - Original Mix"
PERFORMER "Chris Lake, Micky Slim"
INDEX 01 25:53:00
TRACK 07 AUDIO
TITLE "Changing Places - FeralCode Mix"
PERFORMER "Clubbervision"
INDEX 01 34:24:00
TRACK 08 AUDIO
TITLE "Impression - Kriece Remix"
PERFORMER "Jeff Bennett"
INDEX 01 39:54:00
TRACK 09 AUDIO
TITLE "Apocalypse Then - Original Mix"
PERFORMER "Milton Jackson"
INDEX 01 45:47:00
TRACK 10 AUDIO
TITLE "Keule - Original Mix"
PERFORMER "Paul Kalkbrenner"
INDEX 01 50:43:00
TRACK 11 AUDIO
TITLE "Subculture - Ironwire Mix"
PERFORMER "Makau"
INDEX 01 57:27:00
TRACK 12 AUDIO
TITLE "Outhouse - Valentino Kanzyani Remix"
PERFORMER "Nathan Fake"
INDEX 01 63:55:00
TRACK 13 AUDIO
TITLE "Far & Wide - James Harcourt Twisted Instrumental"
PERFORMER "Openair"
INDEX 01 71:11:00


old proggy house mixes - http://www.mixupload.com/index.php?showuser=3395

if you like you can use!
more to come!!!!
cheers o-b-r